즐겨찾기 | 현재접속자 (123) | 최근게시물
총 게시물 2,586건, 최근 13 건
   

[한글] 넛잡: 땅콩 도둑들 The.Nut.Job.2014.720p.BluRay.x264-x0r

글쓴이 : 익명글쓴이 날짜 : 2017-11-14 (화) 13:48 조회 : 326
다운로드 : [한글] 넛잡: 땅콩 도둑들 The.Nut.Job.2014.720p.BluRay.x264-x0r (5.8G)
171112 171113 171114 홈페이지, magnet, 쥬비디오, 사이트


PG | Animation, Adventure, Comedy

Format : Matroska
Format version : Version 4 / Version 2
File size : 1.81 GiB
Duration : 1 h 25 min
Overall bit rate : 3 009 kb/s
Movie name : The.Nut.Job.2014.720p.BluRay.x264-x0r
Encoded date : UTC 2017-11-13 23:02:05
Writing application : mkvmerge v7.7.0 (Six Voices) 64bit built on Mar 1 2015 01:50:05
Writing library : libebml v1.3.1 + libmatroska v1.4.2

Video
ID : 1
Format : AVC
Format/Info : Advanced Video Codec
Format profile : [email protected]
Format settings, CABAC : Yes
Format settings, ReFrames : 9 frames
Codec ID : V_MPEG4/ISO/AVC
Duration : 1 h 25 min
Bit rate : 2 560 kb/s
Width : 1 280 pixels
Height : 720 pixels
Display aspect ratio : 16:9
Frame rate mode : Constant
Frame rate : 23.976 (24000/1001) FPS
Color space : YUV
Chroma subsampling : 4:2:0
Bit depth : 8 bits
Scan type : Progressive
Bits/(Pixel*Frame) : 0.116
Stream size : 1.54 GiB (85%)
Writing library : x264 core 142 r2389 956c8d8
Encoding settings : cabac=1 / ref=9 / deblock=1:-1:-1 / analyse=0x3:0x133 / me=umh / subme=10 / psy=1 / psy_rd=0.60:0.15 / mixed_ref=0 / me_range=32 / chroma_me=1 / trellis=2 / 8x8dct=1 / cqm=0 / deadzone=21,11 / fast_pskip=0 / chroma_qp_offset=-3 / threads=12 / lookahead_threads=1 / sliced_threads=0 / nr=0 / decimate=0 / interlaced=0 / bluray_compat=0 / constrained_intra=0 / bframes=5 / b_pyramid=2 / b_adapt=2 / b_bias=0 / direct=3 / weightb=1 / open_gop=0 / weightp=2 / keyint=240 / keyint_min=24 / scenecut=40 / intra_refresh=0 / rc_lookahead=120 / rc=2pass / mbtree=1 / bitrate=2560 / ratetol=1.0 / qcomp=0.00 / qpmin=0 / qpmax=69 / qpstep=4 / cplxblur=20.0 / qblur=0.5 / vbv_maxrate=20000 / vbv_bufsize=25000 / nal_hrd=none / filler=0 / ip_ratio=1.10 / aq=1:0.80
Language : English
Default : Yes
Forced : No
Color range : Limited
Color primaries : BT.709
Transfer characteristics : BT.709
Matrix coefficients : BT.709

Audio
ID : 2
Format : AC-3
Format/Info : Audio Coding 3
Format settings, Endianness : Big
Codec ID : A_AC3
Duration : 1 h 25 min
Bit rate mode : Constant
Bit rate : 448 kb/s
Channel(s) : 6 channels
Channel positions : Front: L C R, Side: L R, LFE
Sampling rate : 48.0 kHz
Frame rate : 31.250 FPS (1536 spf)
Bit depth : 16 bits
Compression mode : Lossy
Delay relative to video : -5 ms
Stream size : 275 MiB (15%)
Title : Surround
Language : English
Service kind : Complete Main
Default : Yes
Forced : No

Text
ID : 3
Format : UTF-8
Codec ID : S_TEXT/UTF8
Codec ID/Info : UTF-8 Plain Text
Duration : 1 h 24 min
Bit rate : 66 b/s
Count of elements : 1424
Stream size : 41.1 KiB (0%)
Language : English
Default : Yes
Forced : No

[한글] 넛잡: 땅콩 도둑들 The.Nut.Job.2014.720p.BluRay.x264-x0r
[ 바로감상 ] [ 다운로드 ]

   

총 게시물 2,586건, 최근 13 건
번호 제목 날짜 조회
2586
PG | Adventure, Biography, Drama (Duration): 3h 12mn(FileSize): 4.05 GiBVideo(Format): AVC - Advanced Video Codec(Format): x264(Resolution)…
07:48 12
2585
R | Drama, Romance(Duration): 2h 31mn(FileSize): 2.91 GiBVideo(Format): AVC - Advanced Video Codec(Format): x264(Resolution): 1280x720p(Asp…
07:48 12
2584
2019년 11월 LA. 400층이나 되는 높이의 건물들로 가득 찬 거리와 끊임없이 번쩍이는 레온등과 광적 행위가 …
01:48 23
2583
줄거리  당신이 기억에서 나를 지워도 처음처럼 사랑할 수 있을까?열렬히 사랑하는 부부 페이지(…
01:48 23
2582
줄거리  그녀들의 아슬아슬한 반란이 세상을 바꾼다!‘헬프[help]’ 는?1. 가정부 혹은 가사 도우미…
01:48 21
2581
제거 대상은 ‘빈 라덴’, 작전명은 ‘제로니모’!인류 역사상 가장 악명 높은 테러리스트를 사살하라!…
01:48 13
2580
줄거리  법도 없다! 희망도 없다! 탈출구도 없다! 평범한 중산층의 가장 포터는 어느날 집에 침입…
11-20 40
2579
줄거리  역사속에 묻혀졌던 파격적인 스캔들이 공개된다!프로이트와 융... 그리고 그녀가 품었던 …
11-20 47
2578
11-20 47
2577
          링의 공포로부터 벗어난 줄만 알았던 레이첼. 하지만 끔찍한 영혼의 저주는 계속되는 죽…
11-20 48
2576
           1974년 11월 14일, 뉴욕시 외곽에 위치한 아미티빌 마을. 온 가족이 처참하게 몰살당한 살…
11-20 47
2575
년대가 불분명한 5월의 어느날 화성인이 지구에 출현한다. 세계 평화와 자유진영의 지도자를 자처하는 …
11-20 9
2574
 타인의 인생 속으로... 거짓은 거짓을 낳고... 점점 깊어가는 거짓의 세계 한 남자가 있다. 그의 이름은 …
11-20 10
2573
NR | Comedy(Duration): 1h 37mn(FileSize): 1.88 GiBVideo(Format): AVC - Advanced Video Codec(Format): x264(Resolution): 1280x720p(AspectRati…
11-20 54
2572
Approved | Western(Duration): 1h 41mn(FileSize): 1.95 GiBVideo(Format): AVC - Advanced Video Codec(Format): x264(Resolution): 1280x720p(Asp…
11-20 48
2571
임페리얼 커피 컴퍼니의 판매사원인 믹 트래비스는 사원교육에서 진심 어린 미소로 좋은 평가를 받는다.…
11-20 83
2570
11-19 104
2569
마피아에게 쫓기는 증인을 지켜야 하는마데아의 엉뚱발랄 가족코미디!월스트리트 투자 은행의 CFO 인 조…
11-19 102
2568
PG | Drama, Mystery, Sci-Fi Size ...... 10.94 GBDuration .. 2 h 29 minVideo ..... 1920x800p / x264 / 9818 kbps / 23.976 fpsAudio ..... Engl…
11-19 106
2567
Approved | Action, Adventure, Crime SIZE ...... 3.27 GBDURATION .. 1 h 22 minVIDEO ..... x264 / 1280x696p / 5065 Kbps / 23.976 fpsAUDIO ...…
11-19 117
 1  2  3  4  5  6  7  8  9  10  다음  맨끝