즐겨찾기 | 현재접속자 (133) | 최근게시물
총 게시물 2,654건, 최근 14 건
   

[한글] 헨젤과 그레텔 : 마녀 사냥꾼 Hansel and Gretel Witch Hunters 2013 1080p BluRay x264 AAC 5.1 ESub -Hon3y

글쓴이 : 익명글쓴이 날짜 : 2017-11-14 (화) 08:48 조회 : 346
다운로드 : [한글] 헨젤과 그레텔 : 마녀 사냥꾼 Hansel and Gretel Witch Hunters 2013 1080p BluRay x264 AAC 5.1 ESub -Hon3y (4.6G)
171112 171113 171114 torrent, 무료보기, 쥬비디오, 홈페이지


R | Action, Fantasy, Horror

Format                      : Matroska
Format version              : Version 4 / Version 2
File size                   : 2.27 GiB
Duration                    : 1 h 37 min
Overall bit rate            : 3 322 kb/s

Video
ID                          : 1
Format                      : AVC
Format/Info                 : Advanced Video Codec
Format profile              : [email protected]
Format settings, CABAC      : Yes
Format settings, ReFrames   : 5 frames
Codec ID                    : V_MPEG4/ISO/AVC
Duration                    : 1 h 37 min
Bit rate                    : 3 000 kb/s
Width                       : 1 920 pixels
Height                      : 800 pixels
Display aspect ratio        : 2.40:1
Frame rate mode             : Constant
Frame rate                  : 23.976 (24000/1001) FPS
Language                    : English
Default                     : Yes
Forced                      : No

Audio
ID                          : 2
Format                      : AAC
Format/Info                 : Advanced Audio Codec
Format profile              : LC
Codec ID                    : A_AAC
Duration                    : 1 h 37 min
Bit rate                    : 320 kb/s
Channel(s)                  : 6 channels
Channel positions           : Front: L C R, Side: L R, LFE
Sampling rate               : 48.0 kHz
Frame rate                  : 46.875 FPS (1024 spf)
Compression mode            : Lossy
Delay relative to video     : 9 ms
Stream size                 : 224 MiB (10%)
Language                    : English
Default                     : Yes
Forced                      : No

Text #1
ID                          : 3
Format                      : UTF-8
Codec ID                    : S_TEXT/UTF8
Codec ID/Info               : UTF-8 Plain Text
Duration                    : 1 h 29 min
Bit rate                    : 35 b/s
Count of elements           : 905
Stream size                 : 23.5 KiB (0%)
Title                       : English
Language                    : English
Default                     : No
Forced                      : No

Text #2
ID                          : 4
Format                      : UTF-8
Codec ID                    : S_TEXT/UTF8
Codec ID/Info               : UTF-8 Plain Text
Duration                    : 1 h 31 min
Bit rate                    : 41 b/s
Count of elements           : 1189
Stream size                 : 28.1 KiB (0%)
Title                       : English
Language                    : English
Default                     : No
Forced                      : No

[한글] 헨젤과 그레텔 : 마녀 사냥꾼 Hansel and Gretel Witch Hunters 2013 1080p BluRay x264 AAC 5.1 ESub -Hon3y
[ 바로감상 ] [ 다운로드 ]

   

총 게시물 2,654건, 최근 14 건
번호 제목 날짜 조회
2654
02:48 9
2653
<메멘토>보다 더 강력한 전율 | 당신의 두뇌를 철저히 흥분시킨다!신경 정신과 의사 샘 포스터(이완 …
02:48 12
2652
11-24 13
2651
11-24 15
2650
세계 헤비급 챔피언 아폴로 크리드의 아들 아도니스 존슨(마이클 B. 조던)에게는 복싱 선수의 피가 흐르…
11-24 21
2649
세계 헤비급 챔피언 아폴로 크리드의 아들 아도니스 존슨(마이클 B. 조던)에게는 복싱 선수의 피가 흐르…
11-24 5
2648
1944년 겨울. 독일의 마지막 공격이 펼쳐지던 제 2차 세계대전.   미군은 독일이 배후에서 끔찍한 전략…
11-24 8
2647
‘브래드’는 약혼녀 ‘자넷’과 둘을 맺어준 은사 스콧박사를 찾아가는 길에 폭우를 만난다. 설상가상…
11-24 3
2646
11-24 5
2645
 뉴욕 맨하튼의 고급주택. 멕(Meg Altman: 조디 포스터 분)은 남편(Stephen Altman: 패트릭 보초우 분)과 이혼하…
11-24 3
2644
줄거리인간과 기계의 대전쟁.. 그를 지키지 않으면 미래 또한 없다!미래, 인류와 기계의 전쟁은 계속 되…
11-24 5
2643
줄거리인간과 기계의 대전쟁.. 그를 지키지 않으면 미래 또한 없다!미래, 인류와 기계의 전쟁은 계속 되…
11-24 3
2642
PG | Biography, Comedy, Drama Format                      : MatroskaFormat version              : Version…
11-24 38
2641
R | Crime, Drama, Music(Duration): 1h 55mn(FileSize): 2.42 GiBVideo(Format): AVC - Advanced Video Codec(Format): x264(Resolution): 1280x720…
11-24 37
2640
PG | Fantasy, Romance(Duration): 2h 2mn(FileSize): 2.57 GiBVideo(Format): AVC - Advanced Video Codec(Format): x264(Resolution): 1280x720p(A…
11-24 41
2639
G | Drama, Family, Fantasy (Duration): 1h 43mn(FileSize): 1.99 GiBVideo(Format): AVC - Advanced Video Codec(Format): x264(Resolution): 1280…
11-24 40
2638
PG | Comedy, Family(Duration): 1h 32mn(FileSize): 1.57 GiBVideo(Format): AVC - Advanced Video Codec(Format): x264(Resolution): 1280x694p(As…
11-24 39
2637
Source File:Tommy Boy 1995 1080p Bluray REMUX AVC TrueHD 5.1 - R3db0x Media Information:Code:General Complete name : Tommy Boy 1995 1080p…
11-24 41
2636
2019년 11월 LA. 400층이나 되는 높이의 건물들로 가득 찬 거리와 끊임없이 번쩍이는 레온등과 광적 행위가 …
11-23 68
2635
줄거리2012년 2월, ‘나쁜 놈들의 전성시대’가 시작된다! 비리 세관 공무원 최익현, 보스 최형배를 만나…
11-23 74
 1  2  3  4  5  6  7  8  9  10  다음  맨끝