즐겨찾기 | 현재접속자 (46) | 최근게시물
총 게시물 289건, 최근 9 건
   

[한글] 테이크 쉘터 Take Shelter 2011 (1080p Bluray x265 HEVC 10bit AAC 5.1 Tigole)

글쓴이 : 익명글쓴이 날짜 : 2017-06-15 (목) 20:48 조회 : 99
다운로드 : [한글] 테이크 쉘터 Take Shelter 2011 (1080p Bluray x265 HEVC 10bit AAC 5.1 Tigole) (3.7G)
170613 170614 170615 다운로드, 바로보기, 유투브, 토렌트

Take Shelter 2011 in 1080p, encoded with x265 in HEVC and AAC 5.1 English, with English and French subtitles! 
Encoded using the time consuming 2 pass, 10 bit color at 2750 kbps, from a Blu-ray source, for the highest quality possible. 



Media Information

Code:

General 
Format : Matroska 
Format version : Version 4 / Version 2 
File size : 2.66 GiB 
Duration : 2 h 1 min 
Overall bit rate : 3 141 kb/s 
Movie name : Take Shelter 
Encoded date : UTC 2017-05-09 10:26:31 
Writing application : mkvmerge v9.6.0 (Slave To Your Mind) 64bit 
Writing library : libebml v1.3.4 + libmatroska v1.4.5 

Video 
ID : 1 
Format : HEVC 
Format/Info : High Efficiency Video Coding 
Format profile : [email protected]<script data-cfhash='f9e31' type="text/javascript">@Main 
Codec ID : V_MPEGH/ISO/HEVC 
Duration : 2 h 1 min 
Bit rate : 2 761 kb/s 
Width : 1 920 pixels 
Height : 816 pixels 
Display aspect ratio : 2.35:1 
Frame rate mode : Constant 
Frame rate : 23.976 (24000/1001) FPS 

Audio #1 
ID : 2 
Format : AAC 
Format/Info : Advanced Audio Codec 
Format profile : LC 
Codec ID : A_AAC 
Duration : 2 h 1 min 
Bit rate : 305 kb/s 
Channel(s) : 6 channels 
Channel positions : Front: L C R, Side: L R, LFE 
Sampling rate : 48.0 kHz 
Frame rate : 46.875 FPS (1024 spf) 
Compression mode : Lossy 
Delay relative to video : 20 ms 
Stream size : 264 MiB (10%) 
Language : English 
Default : Yes 
Forced : No 

Audio #2 
ID : 3 
Format : AAC 
Format/Info : Advanced Audio Codec 
Format profile : HE-AAC / LC 
Codec ID : A_AAC 
Duration : 2 h 1 min 
Bit rate : 66.2 kb/s 
Channel(s) : 2 channels 
Channel positions : Front: L R 
Sampling rate : 48.0 kHz / 24.0 kHz 
Frame rate : 23.438 FPS (1024 spf) 
Compression mode : Lossy 
Delay relative to video : 40 ms 
Stream size : 57.0 MiB (2%) 
Title : Commentary 
Language : English 
Default : No 
Forced : No 

악몽인가 현실인가, 폭풍에 맞서는 한 남자의 외로운 싸움이 시작된다!

한 여자의 남편이자 한 아이의 아빠로서 성실한 삶을 살고 있는 커티스. 하지만 어느 날부터인가 시작된 악몽은 평온했던 그의 일상을 뒤흔든다. 거대한 폭풍이 밀려오는 악몽은 현실 깊숙이 침투해 커티스를 괴롭히고, 그의 이상행동을 이해하지 못하는 아내 사만다와 동료들은 그를 외면하기에 이른다. 그럼에도 커티스는 폭풍으로부터 가족을 지켜내야 한다는 사명감으로 뒷마당에 방공호를 짓기 시작하는데…

[한글] 테이크 쉘터 Take Shelter 2011 (1080p Bluray x265 HEVC 10bit AAC 5.1 Tigole)
[ 바로감상 ] [ 다운로드 ]

   

총 게시물 289건, 최근 9 건
번호 제목 날짜 조회
289
15:48 1
288
15:48 1
287
시니컬한 건맨인 `이름 없는 자`가 변방의 작은 마을에 나타나 두 명의 라이벌 관계에 있는 갱을 위해 일…
15:48 1
286
줄거리 반드시 돌아가야 할 그녀의 세계무섭도록 신비한 공간이 열린다!< 식스 센스> M. 나이트 샤말란 …
15:48 1
285
줄거리 미지의 세계, 유로파 탐사, 발견 그리고 공포가 펼쳐진다!‘목성의 위성 중 하나인 유로파에 생…
15:48 2
284
SIZE.......................: 4.36 GBRUNTIME................: 01:29:52VIDEO CODEC........: x264 10bits 5800 Kb/sRESOLUTION..........: 1920…
02:48 17
283
SIZE.......................: 4.35 GBRUNTIME................: 01:57:50VIDEO CODEC........: x264 10bits 4130 Kb/sRESOLUTION..........: 1920…
00:48 20
282
06-28 26
281
 바이커 갱들에 의해 조시라는 어린 소녀가 잔인하게 사살되고, 몇 십년이 흐른다. 조시의 아버지는 마…
06-28 31
280
06-28 38
279
파티는 끝났고 모든 건 꼬여버렸다영국 케임브리지 대학의 촉망 받는 교수로 돈, 명예, 연애까지 남부럽…
06-28 31
278
 High.and.Low.1963.720p.BRRip.x264.Japanese.AAC-Ozlem === NFO === Encoder...........: Ozlem File Size.........: 1.09 GB Source........…
06-28 31
277
06-28 48
276
06-28 49
275
양치기 고아출신인 마호메트는 나이 40에 이르러 어느날 갑자기 산속으로 들어갔다가 사흘만에 내려온 …
06-27 48
274
Storyline 황금나침반을 움직이는 자, 세상을 움직일 것이다!‘살아 있는 모든 존재를 멸망으로 이끌 전쟁…
06-27 48
273
런던 암흑가의 갱단 잭 카터는 동생 장례식의 참석하기 위해 고향인 뉴캐슬로 떠난다. 카터는 동생의 죽…
06-27 47
272
전투기 조종사인 코크란은 아버지의 친구이자 조직의 보스인 멘데즈를 찾아간다. 그곳에서 코크란은 멘…
06-27 39
271
줄거리 “정말 이상한 세상이야”미국 작은 도시에 사는 순수한 남학생 제프리(카일 맥라클란)는 산책 …
06-27 38
270
디트로이트 강력계 형사 잭슨. 주위 사람들은 그를 액션 잭슨이라고 부른다. 사건 추적의 집요함. 물불을…
06-27 37
 1  2  3  4  5  6  7  8  9  10  다음  맨끝