즐겨찾기 | 현재접속자 (125) | 최근게시물
총 게시물 2,872건, 최근 11 건
   

[한글] 테이크 쉘터 Take Shelter 2011 (1080p Bluray x265 HEVC 10bit AAC 5.1 Tigole)

글쓴이 : 익명글쓴이 날짜 : 2017-06-15 (목) 20:48 조회 : 2501
다운로드 : [한글] 테이크 쉘터 Take Shelter 2011 (1080p Bluray x265 HEVC 10bit AAC 5.1 Tigole) (1.7G)
170613 170614 170615 torrent, 공유, 사이트, 실시간

Take Shelter 2011 in 1080p, encoded with x265 in HEVC and AAC 5.1 English, with English and French subtitles! 
Encoded using the time consuming 2 pass, 10 bit color at 2750 kbps, from a Blu-ray source, for the highest quality possible. 



Media Information

Code:

General 
Format : Matroska 
Format version : Version 4 / Version 2 
File size : 2.66 GiB 
Duration : 2 h 1 min 
Overall bit rate : 3 141 kb/s 
Movie name : Take Shelter 
Encoded date : UTC 2017-05-09 10:26:31 
Writing application : mkvmerge v9.6.0 (Slave To Your Mind) 64bit 
Writing library : libebml v1.3.4 + libmatroska v1.4.5 

Video 
ID : 1 
Format : HEVC 
Format/Info : High Efficiency Video Coding 
Format profile : [email protected]<script data-cfhash='f9e31' type="text/javascript">@Main 
Codec ID : V_MPEGH/ISO/HEVC 
Duration : 2 h 1 min 
Bit rate : 2 761 kb/s 
Width : 1 920 pixels 
Height : 816 pixels 
Display aspect ratio : 2.35:1 
Frame rate mode : Constant 
Frame rate : 23.976 (24000/1001) FPS 

Audio #1 
ID : 2 
Format : AAC 
Format/Info : Advanced Audio Codec 
Format profile : LC 
Codec ID : A_AAC 
Duration : 2 h 1 min 
Bit rate : 305 kb/s 
Channel(s) : 6 channels 
Channel positions : Front: L C R, Side: L R, LFE 
Sampling rate : 48.0 kHz 
Frame rate : 46.875 FPS (1024 spf) 
Compression mode : Lossy 
Delay relative to video : 20 ms 
Stream size : 264 MiB (10%) 
Language : English 
Default : Yes 
Forced : No 

Audio #2 
ID : 3 
Format : AAC 
Format/Info : Advanced Audio Codec 
Format profile : HE-AAC / LC 
Codec ID : A_AAC 
Duration : 2 h 1 min 
Bit rate : 66.2 kb/s 
Channel(s) : 2 channels 
Channel positions : Front: L R 
Sampling rate : 48.0 kHz / 24.0 kHz 
Frame rate : 23.438 FPS (1024 spf) 
Compression mode : Lossy 
Delay relative to video : 40 ms 
Stream size : 57.0 MiB (2%) 
Title : Commentary 
Language : English 
Default : No 
Forced : No 

악몽인가 현실인가, 폭풍에 맞서는 한 남자의 외로운 싸움이 시작된다!

한 여자의 남편이자 한 아이의 아빠로서 성실한 삶을 살고 있는 커티스. 하지만 어느 날부터인가 시작된 악몽은 평온했던 그의 일상을 뒤흔든다. 거대한 폭풍이 밀려오는 악몽은 현실 깊숙이 침투해 커티스를 괴롭히고, 그의 이상행동을 이해하지 못하는 아내 사만다와 동료들은 그를 외면하기에 이른다. 그럼에도 커티스는 폭풍으로부터 가족을 지켜내야 한다는 사명감으로 뒷마당에 방공호를 짓기 시작하는데…

[한글] 테이크 쉘터 Take Shelter 2011 (1080p Bluray x265 HEVC 10bit AAC 5.1 Tigole)
[ 바로감상 ] [ 다운로드 ]

   

총 게시물 2,872건, 최근 11 건
번호 제목 날짜 조회
2872
 Hereafter 2010 in 1080p, encoded with x265 in HEVC and AAC 5.1 English, with subtitles! Encoded using the time consuming 2 pass, 10 bit …
03:48 31
2871
 Home Alone 2: Lost in New York 1992 in 1080p, encoded with x265 in HEVC and AAC 5.1 English, with subtitles! Encoded using the time cons…
03:48 36
2870
 Home Alone 1990 in 1080p, encoded with x265 in HEVC and AAC 5.1 English, with subtitles! Encoded using the time consuming 2 pass, 10 bit…
03:48 34
2869
※ 자막 출처 : 일드갤 버스 정류장 JMISOFT 님※ 중문 자체자막마스다 아키히데감독치바 유다이주연타니…
03:48 31
2868
 The Legend of Zorro 2005 in 1080p, encoded with x265 in HEVC and AAC 5.1 English, with subtitles! Encoded using the time consuming 2 pas…
03:48 36
2867
 The Mask of Zorro 1998 in 1080p, encoded with x265 in HEVC and AAC 5.1 English, with subtitles! Encoded using the time consuming 2 pass,…
03:48 6
2866
 Excalibur 1981 30th Anniversary Remastered 1080p Bluray x264 DTS MSubS-Hon3y Format : Matroska Format version : Version 4 / Version 2 …
03:48 6
2865
의화단의 난으로 도처에서 미국인들이 위협을 받게 되자 미국 해병대는 그들을 보호하기 위해 양자강을 …
03:48 6
2864
천재적인 두뇌의 소유자 리드(마일즈 텔러). 저명한 과학자 스톰 박사의 눈에 띄어 과학연구소 백스터에…
03:48 7
2863
{이 이야기는 고발이나 진실이 아니며, 특히 전쟁에 맞섰던 이들의 모험담은 더더욱 아니다. 전쟁에서 빠…
03:48 6
2862
 Stephen Kings It 1990 1080p BRRip x264 DTS ESub-Hon3y Format : Matroska Format version : Version 4 / Version 2 File size : 4.52 GiB D…
03:48 6
2861
12-11 35
2860
12-11 35
2859
12-11 35
2858
12-11 38
2857
12-11 35
2856
느리지만 진한, 드러나진 않지만 깊은 사랑이 시작된다!홍콩의 지역 매일 신문 편집장인 초 모완(양조위 …
12-11 20
2855
  이 영화는 바티스타 정권의 몰락 전후 시기의 열광적 정치 이데올로기를 통해 여러 다양한 쿠바의 모…
12-11 19
2854
 Die Hard with a Vengeance 1995 in 1080p, encoded with x265 in HEVC and AAC 5.1 English, with subtitles! Encoded using the time consuming …
12-11 17
2853
 Die Hard 2 1990 in 1080p, encoded with x265 in HEVC and AAC 5.1 English, with subtitles! Encoded using the time consuming 2 pass, 10 bit …
12-11 20
 1  2  3  4  5  6  7  8  9  10  다음  맨끝