즐겨찾기 | 현재접속자 (126) | 최근게시물
총 게시물 2,027건, 최근 20 건
   

[한글] 테이크 쉘터 Take Shelter 2011 (1080p Bluray x265 HEVC 10bit AAC 5.1 Tigole)

글쓴이 : 익명글쓴이 날짜 : 2017-06-15 (목) 20:48 조회 : 1242
다운로드 : [한글] 테이크 쉘터 Take Shelter 2011 (1080p Bluray x265 HEVC 10bit AAC 5.1 Tigole) (5.6G)
170613 170614 170615 magnet, 사이트, 공유, 토렌트

Take Shelter 2011 in 1080p, encoded with x265 in HEVC and AAC 5.1 English, with English and French subtitles! 
Encoded using the time consuming 2 pass, 10 bit color at 2750 kbps, from a Blu-ray source, for the highest quality possible. 



Media Information

Code:

General 
Format : Matroska 
Format version : Version 4 / Version 2 
File size : 2.66 GiB 
Duration : 2 h 1 min 
Overall bit rate : 3 141 kb/s 
Movie name : Take Shelter 
Encoded date : UTC 2017-05-09 10:26:31 
Writing application : mkvmerge v9.6.0 (Slave To Your Mind) 64bit 
Writing library : libebml v1.3.4 + libmatroska v1.4.5 

Video 
ID : 1 
Format : HEVC 
Format/Info : High Efficiency Video Coding 
Format profile : [email protected]<script data-cfhash='f9e31' type="text/javascript">@Main 
Codec ID : V_MPEGH/ISO/HEVC 
Duration : 2 h 1 min 
Bit rate : 2 761 kb/s 
Width : 1 920 pixels 
Height : 816 pixels 
Display aspect ratio : 2.35:1 
Frame rate mode : Constant 
Frame rate : 23.976 (24000/1001) FPS 

Audio #1 
ID : 2 
Format : AAC 
Format/Info : Advanced Audio Codec 
Format profile : LC 
Codec ID : A_AAC 
Duration : 2 h 1 min 
Bit rate : 305 kb/s 
Channel(s) : 6 channels 
Channel positions : Front: L C R, Side: L R, LFE 
Sampling rate : 48.0 kHz 
Frame rate : 46.875 FPS (1024 spf) 
Compression mode : Lossy 
Delay relative to video : 20 ms 
Stream size : 264 MiB (10%) 
Language : English 
Default : Yes 
Forced : No 

Audio #2 
ID : 3 
Format : AAC 
Format/Info : Advanced Audio Codec 
Format profile : HE-AAC / LC 
Codec ID : A_AAC 
Duration : 2 h 1 min 
Bit rate : 66.2 kb/s 
Channel(s) : 2 channels 
Channel positions : Front: L R 
Sampling rate : 48.0 kHz / 24.0 kHz 
Frame rate : 23.438 FPS (1024 spf) 
Compression mode : Lossy 
Delay relative to video : 40 ms 
Stream size : 57.0 MiB (2%) 
Title : Commentary 
Language : English 
Default : No 
Forced : No 

악몽인가 현실인가, 폭풍에 맞서는 한 남자의 외로운 싸움이 시작된다!

한 여자의 남편이자 한 아이의 아빠로서 성실한 삶을 살고 있는 커티스. 하지만 어느 날부터인가 시작된 악몽은 평온했던 그의 일상을 뒤흔든다. 거대한 폭풍이 밀려오는 악몽은 현실 깊숙이 침투해 커티스를 괴롭히고, 그의 이상행동을 이해하지 못하는 아내 사만다와 동료들은 그를 외면하기에 이른다. 그럼에도 커티스는 폭풍으로부터 가족을 지켜내야 한다는 사명감으로 뒷마당에 방공호를 짓기 시작하는데…

[한글] 테이크 쉘터 Take Shelter 2011 (1080p Bluray x265 HEVC 10bit AAC 5.1 Tigole)
[ 바로감상 ] [ 다운로드 ]

   

총 게시물 2,027건, 최근 20 건
번호 제목 날짜 조회
2027
13:48 3
2026
네명의 갈 곳 없는 문제아들을 입양해서 사랑과 정성으로 키워준 양어머니, 에블린 머서가 슈퍼마켓에서…
13:48 1
2025
 1949년 1월, 국민당은 공산당에게 연패하면서 중국 북방 지역을 빼앗기고 남부 지역까지 점령당할 위기…
04:48 22
2024
실화를 바탕으로 한 전쟁 대서사 블록버스터가 온다!세 연인의 시간을 초월한 애틋한 사랑!1949년 1월 27일…
03:48 20
2023
화창한 어느 날, 수많은 하객들과 친구들의 축복을 받으며 댄(브라이언 디차트)과 스카일러(알렉사 베가)…
03:48 23
2022
하나뿐인 아들을 잃고 요양원에서 노년을 보내는 중국인 어머니에게 아들의 연인인 영국인 남자가 찾아…
03:48 22
2021
인간이 잔인해진 만큼 놈들은 더 영리해졌다! | <새벽의 저주> 이후 1년...어느 날 갑자기 무덤에서 살…
10-17 32
2020
10-17 24
2019
10-17 25
2018
<리메이닝>은 지구 종말에 대한 삶, 사랑, 믿음에 대한 질문을 던지는 초자연적 스릴러 액션 영화다. …
10-17 24
2017
10-17 22
2016
10-17 15
2015
10-17 18
2014
10-17 18
2013
10-17 16
2012
10-17 16
2011
 Format : Matroska Format version : Version 4 / Version 2 File size : 2.82 GiB Duration : 2 h 1 min Overall bit rate : 3 321 kb/s Vid…
10-17 17
2010
래리 클락의 데뷔작인 이 작품은 어느 하루 동안 뉴욕의 한 무리의 십대를 쫓으며 우리의 상식과 도덕을 …
10-17 17
2009
 Domino 2005 in 1080p, encoded with x265 in HEVC and AAC 5.1 English, with subtitle! Encoded using the time consuming 2 pass, 10 bit colo…
10-17 16
2008
R | Drama, Horror, Mystery | 27 April 1990 (USA) VideoID                                       : 1For…
10-17 32
 1  2  3  4  5  6  7  8  9  10  다음  맨끝