즐겨찾기 | 현재접속자 (71) | 최근게시물
총 게시물 975건, 최근 70 건
   

[한글] 테이크 쉘터 Take Shelter 2011 (1080p Bluray x265 HEVC 10bit AAC 5.1 Tigole)

글쓴이 : 익명글쓴이 날짜 : 2017-06-15 (목) 20:48 조회 : 377
다운로드 : [한글] 테이크 쉘터 Take Shelter 2011 (1080p Bluray x265 HEVC 10bit AAC 5.1 Tigole) (2.5G)
170613 170614 170615 감상, torrent, 공유, 주비디오

Take Shelter 2011 in 1080p, encoded with x265 in HEVC and AAC 5.1 English, with English and French subtitles! 
Encoded using the time consuming 2 pass, 10 bit color at 2750 kbps, from a Blu-ray source, for the highest quality possible. 



Media Information

Code:

General 
Format : Matroska 
Format version : Version 4 / Version 2 
File size : 2.66 GiB 
Duration : 2 h 1 min 
Overall bit rate : 3 141 kb/s 
Movie name : Take Shelter 
Encoded date : UTC 2017-05-09 10:26:31 
Writing application : mkvmerge v9.6.0 (Slave To Your Mind) 64bit 
Writing library : libebml v1.3.4 + libmatroska v1.4.5 

Video 
ID : 1 
Format : HEVC 
Format/Info : High Efficiency Video Coding 
Format profile : [email protected]<script data-cfhash='f9e31' type="text/javascript">@Main 
Codec ID : V_MPEGH/ISO/HEVC 
Duration : 2 h 1 min 
Bit rate : 2 761 kb/s 
Width : 1 920 pixels 
Height : 816 pixels 
Display aspect ratio : 2.35:1 
Frame rate mode : Constant 
Frame rate : 23.976 (24000/1001) FPS 

Audio #1 
ID : 2 
Format : AAC 
Format/Info : Advanced Audio Codec 
Format profile : LC 
Codec ID : A_AAC 
Duration : 2 h 1 min 
Bit rate : 305 kb/s 
Channel(s) : 6 channels 
Channel positions : Front: L C R, Side: L R, LFE 
Sampling rate : 48.0 kHz 
Frame rate : 46.875 FPS (1024 spf) 
Compression mode : Lossy 
Delay relative to video : 20 ms 
Stream size : 264 MiB (10%) 
Language : English 
Default : Yes 
Forced : No 

Audio #2 
ID : 3 
Format : AAC 
Format/Info : Advanced Audio Codec 
Format profile : HE-AAC / LC 
Codec ID : A_AAC 
Duration : 2 h 1 min 
Bit rate : 66.2 kb/s 
Channel(s) : 2 channels 
Channel positions : Front: L R 
Sampling rate : 48.0 kHz / 24.0 kHz 
Frame rate : 23.438 FPS (1024 spf) 
Compression mode : Lossy 
Delay relative to video : 40 ms 
Stream size : 57.0 MiB (2%) 
Title : Commentary 
Language : English 
Default : No 
Forced : No 

악몽인가 현실인가, 폭풍에 맞서는 한 남자의 외로운 싸움이 시작된다!

한 여자의 남편이자 한 아이의 아빠로서 성실한 삶을 살고 있는 커티스. 하지만 어느 날부터인가 시작된 악몽은 평온했던 그의 일상을 뒤흔든다. 거대한 폭풍이 밀려오는 악몽은 현실 깊숙이 침투해 커티스를 괴롭히고, 그의 이상행동을 이해하지 못하는 아내 사만다와 동료들은 그를 외면하기에 이른다. 그럼에도 커티스는 폭풍으로부터 가족을 지켜내야 한다는 사명감으로 뒷마당에 방공호를 짓기 시작하는데…

[한글] 테이크 쉘터 Take Shelter 2011 (1080p Bluray x265 HEVC 10bit AAC 5.1 Tigole)
[ 바로감상 ] [ 다운로드 ]

   

총 게시물 975건, 최근 70 건
번호 제목 날짜 조회
975
19:48 2
974
         평범한 가족의 복수극선한 자를 분노케 하면, 반격이 온다!1년 전, 아들을 잃은 후 홀로 남…
19:48 1
973
Pet.Sematary.1989.720p.BluRay.x264.AAC-Ozlem === NFO === Encoder...........: Ozlem File Size.........: 807 MB Source............: Pet S…
19:48 2
972
19:48 1
971
19:48 1
970
19:48 0
969
19:48 0
968
x265 Size, x264 Compatibility, HD Quality http://www.imdb.com/title/tt0093137/ 1969년 미국에서 히피족과 학생들이 반전을 …
19:48 0
967
[-] Hide MediaInfoVideoID                                       : 1Format                               …
19:48 0
966
19:48 0
965
엄마의 사고사 후, 정신병원에 입원했던 안나가 집으로 돌아온다. 충격 때문이었을까? 안나는 엄마가 죽…
19:48 0
964
미국 오클라호마주의 플루토늄 가공처리 공장에서 일하는 캐런은 같은 공장에 다니는 남자친구 드류, 친…
03:48 26
963
브라더 후드는 미국 남부 지역을 무대로 마켓을 털며 살인, 방화, 마약거래를 일삼는 공포의 오토바이 갱…
03:48 20
962
4인의 영웅! 미래 액션의 새로운 혁명! | 즐겨라! 판타스틱 액션이 펼쳐진다!천재적인 과학자인 리드 리차…
03:48 22
961
03:48 22
960
03:48 24
959
줄거리세기말... 악령이 불안한 영혼 사이로 스며든다!당신의 영혼도 안전하지 않다!훈장까지 수상한 경…
03:48 5
958
03:48 7
957
03:48 7
956
03:48 6
 1  2  3  4  5  6  7  8  9  10  다음  맨끝